#TITLE:Hot Summer;
#SUBTITLE:Expi3nze;
#ARTIST:f(x);
#TITLETRANSLIT:;
#SUBTITLETRANSLIT:;
#ARTISTTRANSLIT:;
#CREDIT:;
#BANNER:bn.png;
#BACKGROUND:bg.png;
#LYRICSPATH:;
#CDTITLE:cdtitle.png;
#MUSIC:Hot Summer.mp3;
#OFFSET:-0.128;
#SAMPLESTART:67.445;
#SAMPLELENGTH:22.439;
#SELECTABLE:YES;
#BPMS:0.000=123.001,4.000=122.995,5.000=123.001,9.000=122.995,10.000=123.001,14.000=122.995,15.000=123.001,19.000=122.995,20.000=123.001,24.000=122.995,25.000=123.001,29.000=122.995,30.000=123.001,34.000=122.995,35.000=123.001,39.000=122.995,40.000=123.001,44.000=122.995,45.000=123.001,49.000=122.995,50.000=123.001,54.000=122.995,55.000=123.001,60.000=122.995,61.000=123.001,65.000=122.995,66.000=123.001,70.000=122.995,71.000=123.001,75.000=122.995,76.000=123.001,80.000=122.995,81.000=123.001,85.000=122.995,86.000=123.001,90.000=122.995,91.000=123.001,95.000=122.995,96.000=123.001,100.000=122.995,101.000=123.001,105.000=122.995,106.000=123.001,110.000=122.995,111.000=123.001,115.000=122.995,116.000=123.001,121.000=122.995,122.000=123.001,126.000=122.995,127.000=123.001,131.000=122.995,132.000=123.001,136.000=122.995,137.000=246.002,137.500=61.501,137.750=123.001,141.000=61.502,141.333=246.025,142.000=61.502,142.333=246.025,143.000=123.001,147.000=122.995,148.000=123.001,149.000=61.502,149.333=246.025,150.000=61.502,150.333=246.025,151.000=123.001,155.000=122.995,156.000=123.001,157.000=61.502,157.333=246.025,158.000=61.502,158.333=246.025,159.000=123.001,163.000=122.995,164.000=123.001,165.000=61.502,165.333=246.025,166.000=61.502,166.333=246.025,167.000=123.001,171.000=122.995,172.000=123.001,176.000=122.995,177.000=123.001,181.000=122.995,182.000=123.001,186.000=122.995,187.000=123.001,191.000=122.995,192.000=123.001,196.000=122.995,197.000=123.001,200.000=61.502,200.333=246.025,201.000=123.001,204.000=122.995,205.000=123.001,209.000=122.995,210.000=123.001,214.000=122.995,215.000=123.001,220.000=122.995,221.000=123.001,225.000=122.995,226.000=123.001,230.000=122.995,231.000=123.001,235.000=122.995,236.000=123.001,240.000=122.995,241.000=123.001,245.000=122.995,246.000=123.001,249.000=246.002,249.500=61.501,249.750=123.001,253.000=61.502,253.333=246.025,254.000=61.502,254.333=246.025,255.000=123.001,258.000=122.995,259.000=123.001,261.000=61.502,261.333=246.025,262.000=61.502,262.333=246.025,263.000=123.001,266.000=122.995,267.000=123.001,269.000=61.502,269.333=246.025,270.000=61.502,270.333=246.025,271.000=123.001,274.000=122.995,275.000=123.001,277.000=61.502,277.333=246.025,278.000=61.502,278.333=246.025,279.000=123.001,282.000=122.995,283.000=123.001,287.000=122.995,288.000=123.001,292.000=122.995,293.000=61.502,293.333=246.025,294.000=123.001,297.000=122.995,298.000=123.001,302.000=122.995,303.000=123.001,307.000=122.995,308.000=123.001,312.000=246.002,314.000=123.001;
#STOPS:;
#BGCHANGES:;
// cache tags:
#FIRSTBEAT:1.000;
#LASTBEAT:314.000;
#SONGFILENAME:Songs/SDO pack 4/Hot Summer (f(x))/Hot Summer.sm;
#HASMUSIC:1;
#HASBANNER:1;
#MUSICLENGTH:153.707;
// end cache tags

//---------------dance-single - ----------------
#NOTES:
     dance-single:
     :
     Hard:
     16:
     1.000,1.000,1.000,1.000,0.290,682.000,342.000,176.000,0.000,275.000:
0000
0000
0000
0000
0202
0000
0000
0000
1000
0000
1000
0000
1010
0000
0010
1000
,
1000
0000
0010
0000
1010
0000
1000
0000
0010
0000
0010
0000
1000
0000
0010
1000
,
1010
0000
0010
0000
2313
0000
3200
2000
3302
0000
2203
0000
3310
0000
0102
0000
,
1113
0000
0100
0000
0102
0000
0023
0002
2133
0000
3022
0000
0133
0000
2010
0000
,
3111
0000
0010
0000
2010
0000
3200
2000
3302
0000
2203
0000
3310
0000
0102
0000
,
1113
0000
0100
0000
0012
0000
0023
0002
2133
0000
3022
0000
0133
0000
2010
0000
,
3111
0000
0010
0000
2010
0000
3200
2000
3302
0000
2203
0000
3310
0000
0102
0000
,
1113
0000
0100
0000
0012
0000
0023
0002
2133
0000
3022
0000
0133
0000
2010
0000
,
3111
0000
0010
0000
2010
0000
3200
2000
3302
0000
2203
0000
3310
0000
0102
0000
,
1113
0000
0100
0000
0012
0000
0023
0002
2133
0000
3022
0000
0133
0100
2010
0100
,
3111
0010
1000
1000
1110
1100
0001
0010
,
1011
0000
1001
0000
0010
0000
0010
0000
0111
0000
0001
0000
2210
0000
0010
3300
,
1110
1000
0001
0010
0111
1000
1100
0001
,
1011
0000
0010
0000
0001
0000
0101
0000
1110
0000
1000
0000
2012
0000
0010
3003
,
1011
0001
0010
0100
1110
1000
0011
1000
,
1110
0000
1000
0000
0001
0000
0011
0000
1110
0000
1000
0000
1022
0000
1000
0033
,
1011
0001
1000
0010
0111
1000
1100
0001
,
0111
0000
1000
0000
1100
0000
1001
0000
0111
0000
0001
0000
1100
0000
0001
0001
,
1100
1100
1102
0200
2303
3120
0100
1130
,
0110
0011
0110
1100
1011
0001
1100
1001
,
0011
0010
2010
0200
3312
0213
0011
1301
,
1100
1000
0001
0100
1110
0100
0001
0011
,
1001
1100
0102
0020
2033
3201
0011
0311
,
1110
0001
0101
1010
1110
1000
0001
1100
,
1100
0001
1011
1001
1011
1002
0010
1003
,
1110
0000
0100
0000
0001
0000
1110
0000
1110
0000
1110
0000
0100
0000
0001
0010
,
1100
0000
1100
0000
1111
0000
1000
0000
0111
0000
1000
0100
0001
1000
1000
0000
,
0111
0000
1000
0100
0001
0001
1000
0000
1110
0000
0001
0010
1000
1000
0001
0000
,
1110
0000
0001
0010
1000
1000
0001
0000
0111
0000
1000
0100
0001
0001
1000
0000
,
0111
0000
1000
0100
0001
0001
1000
0000
1110
0000
0001
0010
1000
1000
0001
0000
,
1110
0000
0001
0010
1000
1000
0001
0000
1110
0000
0001
0010
1000
1000
0001
0000
,
0111
0000
1000
0100
0001
0001
1000
0000
0111
0000
1000
0100
0001
0001
1000
0000
,
1110
0000
0001
0010
1000
1000
0001
0000
1110
0000
0001
0010
1000
1000
0001
0000
,
1110
0000
0001
0010
1000
1000
0001
0000
0111
0000
1000
0100
0001
0001
1000
0000
,
1011
0010
1000
0000
1111
0000
0000
0000
2200
0000
0001
0300
3011
0000
0122
0000
,
1033
0000
0011
0000
1011
0000
0000
0000
1011
0000
0000
0000
2200
0000
0001
0300
,
3011
0000
0110
0000
1100
0000
1000
0000
2200
0000
0001
0300
3011
0000
0122
0000
,
1033
0011
1011
0000
1011
0000
0011
1001
,
1100
0000
1000
0010
1001
0100
0001
0000
0022
0000
1000
0030
1103
0000
2210
0000
,
3301
0000
1100
0000
1101
0000
0000
0000
1101
0000
0000
0000
0022
0000
1000
0030
,
1103
0000
0110
0000
0011
0000
0001
0000
0022
0000
1000
0030
1103
0000
2210
0000
,
3301
1100
1101
0000
1101
0000
1100
1001
,
0011
0001
1110
1110
1110
1110
1110
1110
,
2220
0000
0000
3330
1101
0000
1101
0000
1101
0000
1101
0000
1101
0000
1101
0000
,
2202
0000
0000
3303
1110
0000
1110
0000
1110
0000
1110
0000
1110
0000
1110
0000
,
2220
0000
0000
3330
1101
0000
1101
0000
1101
0000
1101
0000
1101
0000
1101
0000
,
2202
0000
0000
3303
1101
0000
1101
0000
1101
0000
1101
0000
1101
0000
1101
0000
,
2202
0000
0000
3303
1011
0000
1011
0000
1011
0000
1011
0000
1011
0000
1011
0000
,
2022
0000
0000
3033
1011
0000
1011
0000
1011
0000
1011
0000
1011
0000
1011
0000
,
2022
0000
0000
3033
0111
0000
0111
0000
0111
0000
0111
0000
0111
0000
0111
0000
,
0222
0000
0000
0333
1111
0000
1000
0000
1100
0000
0110
0000
0011
0000
1000
0010
,
1000
0000
1010
0000
1010
0000
0011
1000
0110
0000
1100
0000
0110
0000
0011
0000
,
1110
0000
1000
0000
0011
0000
0011
0000
1100
0000
0011
0000
0011
0000
1000
1000
,
0100
1100
1100
0011
1100
1100
0001
1000
,
1110
0000
1110
0000
1110
0000
1000
0000
0111
0000
1000
0100
0001
1000
1000
0000
,
0111
0000
1000
0100
0001
0001
1000
0000
1110
0000
0001
0010
1000
1000
0001
0000
,
1110
0000
0001
0010
1000
1000
0001
0000
0111
0000
1000
0100
0001
0001
1000
0000
,
0111
0000
1000
0100
0001
0001
1000
0000
1110
0000
0001
0010
1000
1000
0001
0000
,
1110
0000
0001
0010
1000
1000
0001
0000
1110
0000
0001
0010
1000
1000
0001
0000
,
0111
0000
1000
0100
0001
0001
1000
0000
0111
0000
1000
0100
0001
0001
1000
0000
,
1110
0000
0001
0010
1000
1000
0001
0000
1110
0000
0001
0010
1000
1000
0001
0000
,
1110
0000
0001
0010
1000
1000
0001
0000
0111
0000
1000
0100
0001
0001
1000
0000
,
1011
0010
1000
0000
1111
0000
0000
0000
2200
0000
0001
0300
3011
0000
0122
0000
,
1033
0000
0011
0000
1011
0000
0000
0000
1011
0000
0000
0000
2200
0000
0001
0300
,
3011
0000
0110
0000
1100
0000
1000
0000
2200
0000
0001
0300
3011
0000
0122
0000
,
1033
0011
1011
0000
1011
0000
0011
1001
,
1100
0000
1000
0010
1001
0100
0001
0000
0022
0000
1000
0030
1103
0000
2210
0000
,
3301
0000
1100
0000
1101
0000
0000
0000
1101
0000
0000
0000
0022
0000
1000
0030
,
1103
0000
0110
0000
0011
0000
0001
0000
0022
0000
1000
0030
1103
0000
2210
0000
,
3301
1100
1101
0000
1101
0000
1100
1001
,
0011
0000
0001
0100
1001
0010
1000
0000
1110
0000
1000
0000
1100
0000
2210
0000
,
0011
0001
0020
0030
0020
0030
0011
3311
,
1100
0011
0011
1000
1011
1011
1110
1110
,
1000
0001
0111
0000
0111
0001
0101
1010
,
1010
0000
1000
0000
2011
0000
3200
2000
3302
0000
2203
0000
3310
0000
0102
0000
,
1113
0000
0100
0000
0102
0000
0023
0002
2133
0000
3022
0000
0133
0000
2010
0000
,
3111
0000
0010
0000
2010
0000
3200
2000
3302
0000
2203
0000
3310
0000
0102
0000
,
1113
0000
0100
0000
0012
0000
0023
0002
2133
0000
3022
0000
0133
0000
2010
0000
,
3222
0000
0333
0000
;
